Home Original Content Funny Pictures Funny GIFs YouTube Funny Text Funny Movies Channels Search

hide menu

90s kids know this sound

Brings back memories

The old Dial up sound IN HD!!

Info:
Format : AVI
Format/Info : Audio Video Interleave
File size : 11.9 MiB
Duration : 26s 993ms
Overall bit rate : 3 702 Kbps

Video
ID : 0
Format : MPEG-4 Visual
Format profile : Simple@L1
Format settings, BVOP : No
Format settings, QPel : No
Format settings, GMC : No warppoints
Format settings, Matrix : Default (H.263)
Codec ID : XVID
Codec ID/Hint : XviD
Duration : 26s 933ms
Bit rate : 3 504 Kbps
Width : 1 280 pixels
Height : 720 pixels
Display aspect ratio : 16:9
Frame rate : 30.000 fps
Resolution : 8 bits
Colorimetry : 4:2:0
Scan type : Progressive
Bits/(Pixel*Frame) : 0.127
Stream size : 11.2 MiB (94%)
Writing library : Lavc52.41.0

Audio
ID : 1
Format : AC-3
Format/Info : Audio Coding 3
Codec ID : 2000
Duration : 26s 993ms
Bit rate mode : Constant
Bit rate : 320 Kbps
Channel(s) : 2 channels
Channel positions : Front: L R
Sampling rate : 48.0 KHz
Stream size : 631 KiB (5%)
Alignment : Aligned on interleaves
Interleave, duration : 35 ms (1.04 video frame)

+10
Views: 1321
Favorited: 1
Submitted: 02/16/2012
Share On Facebook
Add to favorites Subscribe to ferndizzle E-mail to friend submit to reddit
Share on facebook Share on StumbleUpon Share on Tumblr Share on Google Plus E-mail to friend

Show All Replies Show Shortcuts
Show:   Top Rated Controversial Best Lowest Rated Newest Per page:
Order:
What do you think? Give us your opinion. Anonymous comments allowed.
#1 - ferndizzle (02/16/2012) [-]
GET OFF THE INTERNET!
#4 - veroneej (02/16/2012) [-]
**veroneej rolled a random image posted in comment #743 at My Best Friend ** MY MOM: GET THE 						****					 OFF INTERNET!!!!    ME:GET THE 						****					 OFF THE PHONE
**veroneej rolled a random image posted in comment #743 at My Best Friend ** MY MOM: GET THE **** OFF INTERNET!!!! ME:GET THE **** OFF THE PHONE
#3 - ismellasammich (02/16/2012) [-]
Ahh
The first dubstep track I ever heard.
#2 - xxxsonic fanxxx (02/16/2012) [-]
MOM IM USING THE INTERNET!!! GET OFF THE GOD DAMN PHONE!
 Friends (0)